<?xml version="1.0" standalone="no"?>
<!DOCTYPE svg PUBLIC "-//W3C//DTD SVG 1.1//EN" "http://www.w3.org/Graphics/SVG/1.1/DTD/svg11.dtd" >
<svg xmlns="http://www.w3.org/2000/svg" xmlns:xlink="http://www.w3.org/1999/xlink" version="1.1">
<metadata></metadata>
<defs>
<font id="esofontbold" horiz-adv-x="1024" >
<font-face units-per-em="2048" ascent="1638" descent="-410" />
<missing-glyph horiz-adv-x="454" />
<glyph horiz-adv-x="0" />
<glyph unicode="&#xd;" horiz-adv-x="681" />
<glyph unicode=" "  horiz-adv-x="454" />
<glyph unicode="&#x09;" horiz-adv-x="454" />
<glyph unicode="&#xa0;" horiz-adv-x="454" />
<glyph unicode="!" horiz-adv-x="681" d="M197 1479h286l-45 -1084h-196zM217 0v246h246v-246h-246z" />
<glyph unicode="&#x22;" horiz-adv-x="681" d="M31 948v531h245v-531h-245zM406 948v531h245v-531h-245z" />
<glyph unicode="#" horiz-adv-x="909" d="M0 395v209h176l29 221h-150v209h176l52 396h176l-51 -396h176l51 396h176l-51 -396h153v-209h-180l-28 -221h149v-209h-176l-51 -395h-176l51 395h-176l-52 -395h-176l52 395h-150zM352 604h176l29 221h-176z" />
<glyph unicode="$" horiz-adv-x="909" d="M20 432h283q0 -51 2 -78.5t11.5 -67.5t33 -62.5t60.5 -28.5v397q-68 41 -104 63.5t-95 72.5t-91 94t-56.5 111.5t-24.5 143.5q0 172 101.5 263.5t269.5 107.5v158h88v-158q207 -4 286.5 -103.5t79.5 -310.5h-270q6 74 -16.5 132.5t-79.5 68.5v-369q16 -10 63 -37.5 t67.5 -41t62.5 -43t63.5 -52t51.5 -59.5t44 -73t25.5 -84t11.5 -101q0 -203 -103.5 -290t-285.5 -99v-176h-88v176q-121 0 -200 30.5t-120 93t-55.5 137.5t-14.5 185zM322 1096q0 -100 88 -172v311q-88 -27 -88 -139zM498 195q106 20 106 151q0 109 -106 189v-340z" />
<glyph unicode="%" horiz-adv-x="1593" d="M66 1042q0 88 12 151.5t42 120t90 86.5t150.5 30t150.5 -30t90 -86.5t42 -120t12 -151.5q0 -190 -64.5 -279t-230 -89t-230 89t-64.5 279zM260 1065q0 -135 18.5 -182t82 -47t82 47t18.5 182v51t-5 50t-14.5 52.5t-30 33t-51 16.5t-51 -16.5t-30 -33t-14.5 -52.5t-5 -50 v-51zM416 -39l598 1495h151l-598 -1495h-151zM938 369q0 88 12.5 151.5t42 119.5t90 86t150.5 30t150.5 -30t90 -86t42 -119.5t12.5 -151.5q0 -190 -64.5 -279.5t-230.5 -89.5t-230.5 89t-64.5 280zM1133 391q0 -135 18 -182t81.5 -47t82 47t18.5 182v51.5t-5 50t-14 52 t-29.5 33t-51.5 16.5t-51.5 -16.5t-29.5 -33t-14 -52t-5 -50v-51.5z" />
<glyph unicode="&#x26;" horiz-adv-x="1366" d="M25 424q0 135 77.5 234.5t212.5 187.5q-51 66 -79.5 109.5t-56 116.5t-27.5 145q0 123 128 204.5t318 81.5q59 0 119.5 -14t120 -45t97.5 -90.5t38 -139.5q0 -35 -7.5 -68.5t-14.5 -58t-28.5 -56.5t-30.5 -47t-41 -46t-40 -39t-46 -43t-44 -39l231 -303q33 119 33 295 h250q0 -106 -3 -168.5t-26.5 -163t-70.5 -174.5l223 -303h-303l-90 117q-82 -80 -180.5 -108.5t-231.5 -28.5q-256 0 -392 114.5t-136 329.5zM334 424q0 -106 59.5 -166.5t165.5 -60.5q149 0 225 98l-301 369q-150 -117 -149 -240zM434 1202q0 -88 109 -213q147 92 147 203 q0 59 -33.5 93t-93.5 34q-51 0 -90 -33t-39 -84z" />
<glyph unicode="'" horiz-adv-x="512" d="M133 948v531h246v-531h-246z" />
<glyph unicode="(" horiz-adv-x="569" d="M68 666q0 327 217 880h161q-133 -559 -133 -882q0 -127 15.5 -265.5t32 -224.5t46 -225t39.5 -193h-161q-4 12 -32 93t-35 102.5t-31.5 96.5t-33 106.5t-26.5 98t-25.5 108.5t-17.5 98.5t-13 106.5t-3 100z" />
<glyph unicode=")" horiz-adv-x="569" d="M123 -244q133 551 133 879q0 127 -15.5 264t-31.5 225t-46 226.5t-40 195.5h162q6 -16 36.5 -106t39 -117t34 -110t35.5 -120.5t27.5 -110.5t24.5 -122t13.5 -110.5t6.5 -116.5q0 -324 -217 -877h-162z" />
<glyph unicode="*" horiz-adv-x="909" d="M66 1024v199l280 -35l-166 221l172 94l103 -254l102 254l172 -94l-166 -221l281 35v-199l-281 37l182 -232l-174 -106l-116 281l-117 -281l-174 106l182 232z" />
<glyph unicode="+" d="M51 403v228h348v403h228v-403h346v-228h-346v-403h-228v403h-348z" />
<glyph unicode="," horiz-adv-x="454" d="M51 -195l84 465h268l-155 -465h-197z" />
<glyph unicode="-" horiz-adv-x="681" d="M90 449v208h502v-208h-502z" />
<glyph unicode="." horiz-adv-x="454" d="M104 0v270h246v-270h-246z" />
<glyph unicode="/" horiz-adv-x="569" d="M-61 -193l485 1672h209l-488 -1672h-206z" />
<glyph unicode="0" horiz-adv-x="909" d="M41 719q0 174 9 286.5t35 205t73 140.5t118.5 72.5t178 24.5t178.5 -24.5t119 -72.5t72.5 -140.5t34.5 -205t9 -286.5q0 -129 -4 -212t-17 -176t-41 -148.5t-73 -104.5t-114.5 -70.5t-164 -21.5t-164 21.5t-114.5 70.5t-72.5 104.5t-41 148.5t-17.5 176t-4 212zM330 715 q0 -336 20.5 -430.5t104.5 -94.5t104.5 94.5t20.5 430.5q0 348 -18.5 436t-106.5 88t-106.5 -88t-18.5 -436z" />
<glyph unicode="1" horiz-adv-x="909" d="M100 940v268q188 104 277 222h274v-1430h-309v1100q-101 -84 -242 -160z" />
<glyph unicode="2" horiz-adv-x="909" d="M25 0v252q90 121 194.5 256t149.5 194.5t95 129t66.5 105.5t27.5 77t11 86q0 139 -108 139q-43 0 -69.5 -17.5t-38 -52t-14.5 -63.5t-3 -72h-289q-14 199 89.5 306.5t303.5 107.5q418 0 418 -369q0 -66 -19.5 -137.5t-60.5 -145t-77.5 -133t-100 -135t-97.5 -115.5 t-98.5 -110t-76.5 -82h544v-221h-847z" />
<glyph unicode="3" horiz-adv-x="909" d="M25 387h288v-58.5t6.5 -49t18.5 -48t35.5 -28t60.5 -13.5q47 0 77 19.5t43 55.5t17 69t4 78q0 147 -52 183t-216 36v227q150 -6 198 31t48 180q0 170 -111 170q-70 0 -91 -44t-21 -122h-289q0 213 98 299q90 76 312 76q203 0 297 -89t94 -292q0 -289 -195 -317v-5 q127 -25 172 -113.5t45 -234.5q0 -215 -111.5 -313t-334.5 -98q-215 0 -304 88t-89 313z" />
<glyph unicode="4" horiz-adv-x="909" d="M45 326v288q205 481 322 758l24 58h379v-883h113v-221h-113v-326h-283v326h-442zM266 547h246l18 682h-4z" />
<glyph unicode="5" horiz-adv-x="909" d="M59 336h289q0 -70 21 -103q27 -43 88 -43q82 0 105.5 62.5t23.5 220.5q0 174 -33 232q-31 55 -90 55q-57 0 -83 -49t-26 -111h-278v830h747v-222h-465v-356l4 -4q63 96 207 96q170 0 237.5 -113.5t67.5 -357.5q0 -276 -103 -381.5t-333 -105.5q-188 0 -286.5 83 t-92.5 267z" />
<glyph unicode="6" horiz-adv-x="909" d="M39 594q0 137 3 227t12 189.5t28.5 160t51.5 119t78 90t112.5 50t152.5 18.5q174 0 276.5 -80t100.5 -248h-301q4 57 -18 92q-27 39 -82 39q-92 0 -111.5 -70.5t-19.5 -355.5q66 57 109.5 78t119.5 21q317 0 317 -455q0 -236 -99 -359.5t-331 -123.5q-109 0 -184.5 36.5 t-116.5 91t-64.5 142.5t-28.5 160.5t-5 177.5zM328 442q0 -47 2 -77.5t12 -77.5t36.5 -72t67.5 -25q76 0 105 57.5t29 219.5q0 143 -27 201.5t-104.5 58.5t-99 -64.5t-21.5 -220.5z" />
<glyph unicode="7" horiz-adv-x="909" d="M63 1208v222h768v-273l-348 -1157h-321l391 1208h-490z" />
<glyph unicode="8" horiz-adv-x="909" d="M41 367q0 154 42 248t169 139v4q-113 29 -156 106.5t-43 204.5q0 379 401.5 379t401.5 -379q0 -127 -43 -205t-156 -106v-4q127 -45 169 -139.5t42 -247.5q0 -197 -103 -289t-310 -92t-310.5 92t-103.5 289zM330 385q0 -195 125 -195t125 195v50.5t-3.5 52t-11.5 58 t-20.5 45t-36 37t-54 11.5t-54 -11.5t-36 -37t-20.5 -45t-11 -58t-3 -52v-50.5zM342 1053q0 -193 112.5 -193t112.5 193q0 186 -112.5 186t-112.5 -186z" />
<glyph unicode="9" horiz-adv-x="909" d="M39 940q0 508 407 508q63 0 114.5 -8t91.5 -31t72 -44.5t54.5 -63t37.5 -71.5t25.5 -89.5t15.5 -94t8 -107.5t3 -110.5v-119.5q0 -74 -1 -118t-5 -113.5t-11 -112.5t-21.5 -101.5t-36 -93.5t-53 -74t-73.5 -60.5t-98.5 -35.5t-124.5 -14q-197 0 -293 77.5t-92 272.5h287 q0 -68 21 -100q29 -45 86 -46q90 0 109.5 69t17.5 294v94q-94 -94 -238 -94q-154 0 -228.5 113.5t-74.5 273.5zM328 997.5q0 -49.5 2 -79t12 -75.5t38 -69.5t71 -23.5q129 0 129 254q0 248 -127 247q-43 0 -72 -24.5t-39 -71.5t-12 -77.5t-2 -80z" />
<glyph unicode=":" horiz-adv-x="454" d="M104 0v270h246v-270h-246zM104 764v270h246v-270h-246z" />
<glyph unicode=";" horiz-adv-x="454" d="M25 -195l84 465h268l-156 -465h-196zM104 768v266h246v-266h-246z" />
<glyph unicode="&#x3c;" d="M86 412v202l854 465v-227l-608 -342l608 -332v-223z" />
<glyph unicode="=" d="M51 203v227h922v-227h-922zM51 604v227h922v-227h-922z" />
<glyph unicode="&#x3e;" d="M84 -45v223l608 332l-608 342v227l854 -465v-202z" />
<glyph unicode="?" horiz-adv-x="909" d="M76 1083q0 47 1 70t7 76t19.5 82.5t42 70.5t68.5 63.5t103.5 40t143.5 17.5q164 0 268.5 -87t104.5 -247q0 -188 -146 -366q-8 -10 -34.5 -42t-36 -44t-29 -39t-26.5 -44.5t-13 -42t-6 -48.5v-148h-211v211q0 90 110 271q39 63 55.5 93.5t35 83t18.5 93.5q0 147 -119 147 q-39 0 -63.5 -17t-33.5 -55t-11 -63.5t-2 -75.5h-246zM317 0v246h246v-246h-246z" />
<glyph unicode="@" horiz-adv-x="1628" d="M88 741.5q0 317.5 223.5 539.5t540.5 222q150 0 271.5 -43t196.5 -109.5t127 -151.5t72.5 -163t20.5 -147q0 -238 -135 -408t-313 -170q-47 0 -88 31t-52 84l-4 4q-92 -119 -237 -119q-129 0 -193.5 109.5t-64.5 247.5q0 190 101 327.5t282 137.5q154 0 202 -119h4l19 92 h190l-71 -399q-33 -176 -33 -201q0 -33 39 -33q76 0 142.5 111.5t68.5 249.5q2 133 -42 235t-106.5 155.5t-145.5 86t-140.5 41t-110.5 8.5q-258 0 -439.5 -181.5t-181.5 -437.5q0 -258 181.5 -440t439.5 -182q123 0 239.5 50t194.5 130h187q-100 -147 -267.5 -233 t-353.5 -86q-317 0 -540.5 222t-223.5 539.5zM657 653q0 -76 29 -128t88 -52q219 0 219 358q0 72 -36 115t-97 43q-90 0 -146.5 -97t-56.5 -239z" />
<glyph unicode="A" horiz-adv-x="1251" d="M16 0l410 1479h408l401 -1479h-326l-82 328h-421l-84 -328h-306zM467 555h295l-150 639h-4z" />
<glyph unicode="B" horiz-adv-x="1251" d="M133 0v1479h549q96 0 168 -16.5t134.5 -56.5t95 -118t32.5 -192q0 -131 -64.5 -216t-187.5 -110v-4q156 -23 216.5 -116t60.5 -259q0 -391 -457 -391h-547zM442 227h172q29 0 48.5 2t54.5 12.5t56.5 31t37.5 62.5t16 101q0 104 -47 157.5t-157 53.5h-181v-420zM442 874 h207q61 0 111.5 45.5t50.5 143.5q0 82 -50 135t-128 53h-191v-377z" />
<glyph unicode="C" horiz-adv-x="1138" d="M115 739q0 156 4 235t29.5 198.5t75.5 179t151.5 105.5t249.5 46q231 0 335 -124q95 -113 96 -325q0 -20 -1 -42h-303q0 147 -29 208.5t-98 61.5q-123 0 -160 -117.5t-37 -425t37 -425t160 -117.5q47 0 76.5 25.5t42 68.5t16.5 87t6 93v27h305q0 -285 -109.5 -401.5 t-336.5 -116.5q-147 0 -249 46t-152 104t-75.5 179t-29.5 199t-4 231z" />
<glyph unicode="D" horiz-adv-x="1251" d="M135 0v1479h516q150 0 246 -47.5t147.5 -148.5t70 -225t18.5 -310q0 -244 -19 -342q-74 -406 -475 -406h-504zM444 227h150q137 0 181 111t44 401q0 78 -1 116t-4 103.5t-11 98.5t-23.5 77t-38 65.5t-57.5 36.5t-80 15h-160v-1024z" />
<glyph unicode="E" d="M129 0v1479h807v-228h-498v-364h459v-228h-459v-432h514v-227h-823z" />
<glyph unicode="F" horiz-adv-x="909" d="M123 0v1479h768v-228h-459v-379h438v-227h-438v-645h-309z" />
<glyph unicode="G" horiz-adv-x="1251" d="M115 752q0 98 2 160.5t13 149.5t31.5 143.5t58.5 117.5t93.5 97t137 59.5t188.5 23.5q231 0 359 -125q115 -113 115 -310q0 -21 -1 -44h-307q0 45 -3 80t-14.5 69.5t-31 57t-54 37t-81.5 14.5q-35 0 -64 -10t-48.5 -36t-33.5 -50.5t-23.5 -70.5t-14.5 -78.5t-7 -95 t-2 -98.5v-108q0 -236 19.5 -349.5t64.5 -154.5t137 -41q72 0 154 29v328h-168v227h477v-749q-231 -45 -418 -45q-131 0 -224 17t-157.5 59t-103.5 97.5t-59.5 150.5t-27.5 194.5t-7 253.5z" />
<glyph unicode="H" horiz-adv-x="1251" d="M139 0v1479h310v-592h354v592h309v-1479h-309v659h-354v-659h-310z" />
<glyph unicode="I" horiz-adv-x="569" d="M129 0v1479h309v-1479h-309z" />
<glyph unicode="J" d="M31 492h315q0 -12 -1 -52.5t0 -60t3 -53t11.5 -52t23.5 -39t40 -29.5t58 -9q51 0 85 38.5t34 88.5v1155h309v-1135q0 -182 -123.5 -273t-304.5 -91q-106 0 -183 13t-126 46t-77.5 68.5t-43 103.5t-17.5 125t-3 156z" />
<glyph unicode="K" horiz-adv-x="1138" d="M111 0v1479h309v-633h4l362 633h340l-413 -664l413 -815h-348l-354 758h-4v-758h-309z" />
<glyph unicode="L" horiz-adv-x="909" d="M131 0v1479h309v-1233h463v-246h-772z" />
<glyph unicode="M" horiz-adv-x="1705" d="M123 0v1479h498l231 -1006h4l246 1006h481v-1479h-301v1141h-4l-285 -1141h-295l-270 1141h-4v-1141h-301z" />
<glyph unicode="N" horiz-adv-x="1366" d="M131 0v1479h418l393 -1024h4v1024h289v-1479h-408l-403 1081h-4v-1081h-289z" />
<glyph unicode="O" horiz-adv-x="1251" d="M115 739q0 156 4 235t29.5 198.5t75.5 179t151.5 105.5t249 46t249 -46t151.5 -105.5t75.5 -179t30 -198.5t4.5 -235q0 -154 -4.5 -231.5t-30 -198.5t-75.5 -179t-151.5 -104t-249 -46t-249 46t-151.5 104t-75.5 179t-29.5 199t-4 231zM428 739.5q0 -307.5 37 -425 t160 -117.5t159.5 117.5t36.5 425t-36.5 425t-159.5 117.5t-160 -117.5t-37 -425z" />
<glyph unicode="P" horiz-adv-x="1138" d="M131 0v1479h557q393 0 393 -443q0 -59 -7 -110.5t-33.5 -113.5t-68.5 -106t-120 -74t-182 -30h-230v-602h-309zM440 829h172q68 0 112 60.5t44 138.5q0 223 -172 223h-156v-422z" />
<glyph unicode="Q" horiz-adv-x="1251" d="M115 739q0 156 4 235t29.5 198.5t75.5 179t151.5 105.5t249 46t249 -46t151.5 -105.5t75.5 -179t30 -198.5t4.5 -235q0 -231 -42 -355t-139 -204l4 -4q14 4 76 27.5t80 23.5h129v-227h-436q-57 0 -88 -2q-61 -8 -90 -8q-137 0 -229.5 30.5t-148.5 83t-87 151.5t-40 206.5 t-9 277.5zM428 739q0 -299 37 -415.5t160 -116.5t159.5 116.5t36.5 415.5q0 307 -36.5 425t-159.5 118t-160 -117.5t-37 -425.5z" />
<glyph unicode="R" horiz-adv-x="1138" d="M123 0v1479h571q162 0 254 -100.5t92 -286.5q0 -317 -274 -363v-4q37 -4 56.5 -7t65.5 -21.5t72.5 -46t50 -84t23.5 -132.5q0 -360 34 -434h-302q-12 27 -19.5 52.5t-10.5 62.5t-4 52v24v41q1 50 1 55q0 166 -16 213q-37 112 -202 112h-3h-80v-612h-309zM432 840h137 q84 0 121 65.5t37 151.5q0 194 -156 194h-2h-137v-411z" />
<glyph unicode="S" horiz-adv-x="1138" d="M92 457h309q0 -51 2.5 -82t11.5 -70t27.5 -59.5t52 -34.5t83.5 -14q76 0 115.5 45t39.5 123q0 72 -64.5 133t-155.5 111t-182 108.5t-155.5 153t-64.5 216.5q0 416 487 416q228 1 336 -107q95 -95 96 -286q0 -25 -2 -51h-301q0 102 -29.5 162.5t-113.5 60.5 q-76 0 -118 -41t-42 -116.5t64.5 -136t155.5 -107.5t182.5 -102.5t156 -151t64.5 -224.5q0 -111 -33 -190.5t-80 -123.5t-121 -69.5t-137.5 -32.5t-145.5 -7q-111 0 -193.5 25.5t-130.5 67.5t-76 105.5t-36 129.5q-5 38 -5 82q0 32 3 67z" />
<glyph unicode="T" d="M12 1233v246h998v-246h-344v-1233h-310v1233h-344z" />
<glyph unicode="U" horiz-adv-x="1251" d="M123 430v1049h309v-1028q0 -254 191 -254q197 0 196 254v1028h309v-1049q0 -188 -120.5 -319t-380.5 -131q-250 0 -377 118.5t-127 331.5z" />
<glyph unicode="V" horiz-adv-x="1138" d="M10 1479h322l229 -1076h4l258 1076h305l-391 -1479h-362z" />
<glyph unicode="W" horiz-adv-x="1820" d="M0 1479h315l193 -1039h4l233 1039h365l221 -1039h4l185 1039h303l-328 -1479h-342l-231 1081h-4l-256 -1081h-336z" />
<glyph unicode="X" horiz-adv-x="1138" d="M6 0l383 774l-356 705h352l211 -486l207 486h321l-368 -731l374 -748h-350l-227 510l-227 -510h-320z" />
<glyph unicode="Y" horiz-adv-x="1138" d="M14 1479h338l221 -625l236 625h315l-413 -967v-512h-310v512z" />
<glyph unicode="Z" d="M45 0v270l621 981h-592v228h891v-269l-623 -983h637v-227h-934z" />
<glyph unicode="[" horiz-adv-x="569" d="M90 -244v1790h434v-178h-207v-1434h207v-178h-434z" />
<glyph unicode="\" horiz-adv-x="512" d="M-166 1479h215l631 -1479h-219z" />
<glyph unicode="]" horiz-adv-x="569" d="M45 -66h207v1434h-207v178h434v-1790h-434v178z" />
<glyph unicode="^" d="M6 561l373 869h266l373 -869h-258l-248 613l-248 -613h-258z" />
<glyph unicode="_" d="M0 -150h1024v-102h-1024v102z" />
<glyph unicode="`" horiz-adv-x="569" d="M0 1479h276l185 -293h-133z" />
<glyph unicode="a" d="M84 309q0 98 31.5 168t77 105.5t123.5 53.5q78 20 140 24q43 3 103 3q27 0 57 -1v79q0 78 -22.5 115t-93.5 37q-68 0 -88.5 -41t-20.5 -117h-282q0 174 106 252q94 68 270 68q133 0 219.5 -25.5t126 -78t54 -107.5t15.5 -135v-516q0 -45 13 -193h-268l-12 137h-4 q-87 -153 -269 -153h-2q-141 0 -207.5 89t-66.5 236zM367 322q0 -164 106 -164q35 0 61.5 12t42 37.5t24.5 48.5t12 63.5t4 62.5q0 11 1 27q0 15 -1 37q-1 44 -1 54q-8 0 -40.5 -1t-41 -2t-35 -3t-33.5 -6.5t-26.5 -10.5t-26.5 -15t-18.5 -22.5t-15.5 -30t-8 -39t-4 -48.5z " />
<glyph unicode="b" d="M115 0v1479h288v-543h5q80 119 235 119q59 0 106.5 -20.5t77 -46t50 -79t29.5 -86t14.5 -104.5t5.5 -97.5v-97.5v-20q0 -63 -1 -97t-6.5 -97.5t-15.5 -101.5t-30.5 -86t-51 -73.5t-78 -45t-106.5 -19.5q-174 0 -244 131h-4v-115h-274zM403 526q0 -207 23.5 -287.5 t93.5 -80.5q76 0 99.5 80.5t23.5 287.5q0 223 -25 283q-27 68 -98 68q-29 0 -49 -9.5t-32.5 -35t-19.5 -48t-10 -71.5t-4.5 -80t-1.5 -96v-11z" />
<glyph unicode="c" d="M90 530q0 123 13.5 204t54.5 161t129 120t225 40q418 0 418 -389h-289q0 113 -29.5 158.5t-99.5 45.5q-86 0 -109.5 -71.5t-23.5 -251.5q0 -236 26.5 -309.5t106.5 -73.5q133 0 133 217h289q0 -397 -422 -397q-135 0 -222 37.5t-129 116.5t-56.5 168t-14.5 224z" />
<glyph unicode="d" d="M94 504v20v97.5t5 97.5t14.5 104.5t30 86t50 79t76.5 46t107 20.5q156 0 235 -119h4v543h289v-1479h-274v115h-4q-70 -131 -244 -131q-59 0 -106.5 19.5t-78 45t-51 74.5t-31 86t-15.5 100.5t-6 97t-1 97.5zM377 526q0 -207 23.5 -287.5t99.5 -80.5q70 0 93 80.5 t23 287.5v11q0 66 -1 96.5t-4 79.5t-10 71.5t-19.5 48t-33 35t-48.5 9.5q-31 0 -52.5 -9.5t-35 -35t-20.5 -48t-10 -71.5t-4 -80t-1 -96v-11z" />
<glyph unicode="e" d="M90 530q0 123 13.5 204t54.5 161t129 120t225 40q113 0 193.5 -30t126 -79t70.5 -128q24 -80 30 -158q4 -47 4 -105q0 -39 -2 -84h-553q0 -61 3 -102t14.5 -95.5t40 -82t73.5 -27.5q123 0 123 184h293q-6 -174 -111 -268q-102 -96 -305 -96q-135 0 -222 37.5t-129 116.5 t-56.5 168t-14.5 224zM381 633h264v66.5t-7 61.5t-19.5 61.5t-40 37t-66.5 17.5q-47 0 -75.5 -23t-40 -69t-13.5 -74.5t-2 -77.5z" />
<glyph unicode="f" horiz-adv-x="569" d="M0 856v178h131q0 90 -1 162v9q0 67 14 118q14 55 45.5 92t97 55.5t170.5 18.5q32 0 102 -4v-185q-13 1 -25 1q-63 0 -88 -27q-28 -33 -28 -115v-125h135v-178h-135v-856h-289v856h-129z" />
<glyph unicode="g" d="M90 510v29q0 74 2 118.5t10.5 114.5t28 112t52 86t87 64.5t125.5 20.5q172 0 232 -142h4v121h274v-1073q0 -39 -2 -66.5t-22.5 -87t-58.5 -98.5t-117.5 -70.5t-192.5 -31.5q-184 0 -292.5 66.5t-113.5 240.5h283q0 -72 25 -104q29 -41 96 -41q106 0 106 172v194h-4 q-66 -121 -219 -121q-63 0 -112.5 17.5t-81 40t-53 67.5t-33 78t-16.5 96.5t-6 96t-1 100.5zM373 408.5q0 -11.5 1 -41t5 -44t9 -39t15.5 -38t22.5 -27.5t30.5 -20t41.5 -6q74 0 96 73.5t22 253.5q0 193 -21.5 275t-94.5 82q-80 0 -103.5 -75t-23.5 -317v-34.5v-42z" />
<glyph unicode="h" d="M115 0v1479h288v-549h5q41 68 102 96q57 29 141 29q109 0 183.5 -60.5t74.5 -165.5v-829h-288v713q0 80 -23 122t-86 42t-86 -42t-23 -122v-713h-288z" />
<glyph unicode="i" horiz-adv-x="569" d="M139 0v1034h289v-1034h-289zM139 1251v228h289v-228h-289z" />
<glyph unicode="j" horiz-adv-x="569" d="M63 -199q20 0 35 4.5t28 22.5t13 53v1153h289v-1124q0 -158 -66.5 -227.5t-201.5 -69.5q-47 0 -97 6v182zM139 1251v228h289v-228h-289z" />
<glyph unicode="k" d="M109 0v1479h288v-881h4l261 436h301l-293 -461l325 -573h-325l-269 563h-4v-563h-288z" />
<glyph unicode="l" horiz-adv-x="569" d="M139 0v1479h289v-1479h-289z" />
<glyph unicode="m" horiz-adv-x="1478" d="M92 0v1034h289v-104h4q78 125 244 125q156 0 231 -131q98 131 268 131q109 0 183.5 -60.5t74.5 -165.5v-829h-288v713q0 80 -22.5 122t-86 42t-86 -42t-22.5 -122v-713h-283v713q0 80 -22.5 122t-86 42t-86 -42t-22.5 -122v-713h-289z" />
<glyph unicode="n" d="M115 0v1034h288v-104h5q41 68 102 96q57 29 141 29q109 0 183.5 -60.5t74.5 -165.5v-829h-288v713q0 80 -23 122t-86 42t-86 -42t-23 -122v-713h-288z" />
<glyph unicode="o" d="M90 530q0 123 13.5 204t54.5 161t129 120t225 40t225 -40t129 -120t54.5 -161t13.5 -204q0 -135 -14.5 -224t-56.5 -168t-129 -116.5t-222 -37.5t-222 37.5t-129 116.5t-56.5 168t-14.5 224zM379 547q0 -236 26.5 -309.5t106.5 -73.5t106.5 73.5t26.5 309.5 q0 180 -23.5 251.5t-109.5 71.5t-109.5 -71.5t-23.5 -251.5z" />
<glyph unicode="p" d="M115 -440v1474h274v-114h4q72 135 244 135q59 0 106.5 -19.5t78 -46t51 -76t30.5 -86t15.5 -101t6.5 -98.5t1 -98v-20v-16q0 -72 -1 -113t-8.5 -110.5t-26 -111.5t-48 -87t-80.5 -66.5t-119 -21.5q-158 0 -235 114h-5v-538h-288zM403 526q0 -207 23.5 -287.5t93.5 -80.5 q76 0 99.5 80.5t23.5 287.5q0 223 -25 283q-27 68 -98 68q-29 0 -49 -9.5t-32.5 -35t-19.5 -48t-10 -71.5t-4.5 -80t-1.5 -96v-11z" />
<glyph unicode="q" d="M98 494v16v20q0 63 1 98.5t6.5 99t15.5 101t30.5 86t51 75t78 46t106.5 19.5q172 0 244 -135h4v114h274v-1474h-288v538h-5q-77 -114 -232 -114h-3q-68 0 -119 21.5t-80.5 66.5t-48 86t-26 112.5t-8.5 110.5t-1 113zM381 526q0 -207 23.5 -287.5t99.5 -80.5 q70 0 93.5 80.5t23.5 287.5v11q0 66 -1.5 96.5t-4.5 79.5t-10 71.5t-19.5 48t-33 35t-48.5 9.5q-31 0 -52.5 -9.5t-35 -35t-20.5 -48t-10 -71.5t-4 -80t-1 -96v-11z" />
<glyph unicode="r" horiz-adv-x="681" d="M115 0v1034h274v-133h4q70 154 269 154v-258q-17 1 -33 1q-53 0 -93 -10q-52 -14 -77 -35.5t-38 -59.5t-15.5 -63.5t-2.5 -66.5v-563h-288z" />
<glyph unicode="s" horiz-adv-x="909" d="M59 332h283q-1 -15 -1 -29q0 -62 15 -96q25 -49 105 -49q45 0 75.5 28.5t30.5 77.5q0 59 -52 103.5t-127 74t-149.5 65.5t-127 100.5t-52.5 156.5q0 104 65.5 173t153 93.5t189.5 24.5q163 0 267 -80q93 -71 92 -204q0 -17 -1 -34h-282q0 106 -29 133q-23 23 -74 23 q-98 0 -98 -111q0 -45 52 -80.5t127 -67.5t149.5 -71t127 -107.5t52.5 -160.5q0 -137 -105.5 -224t-281.5 -87q-102 0 -173 14t-128.5 51t-83.5 108q-21 57 -20 137q0 18 1 38z" />
<glyph unicode="t" horiz-adv-x="569" d="M0 856v178h115v164l288 129v-293h150v-178h-150v-553q0 -51 3.5 -71.5t24 -39t65.5 -18.5q37 0 51 4v-178q-16 0 -63.5 -3t-86.5 -3q-88 0 -148.5 25.5t-87 64.5t-36.5 71.5t-10 63.5v637h-115z" />
<glyph unicode="u" d="M115 205v829h288v-717q0 -78 23 -118.5t86 -40.5t86 41t23 118v717h288v-829q0 -92 11 -205h-299v104h-5q-45 -70 -102 -96q-59 -24 -135 -24h-6q-109 0 -183.5 59t-74.5 162z" />
<glyph unicode="v" horiz-adv-x="909" d="M16 1034h293l146 -776h4l151 776h283l-285 -1034h-317z" />
<glyph unicode="w" horiz-adv-x="1593" d="M23 1034h286l142 -778h4l198 778h299l183 -778h4l155 778h277l-281 -1034h-303l-186 707h-4l-209 -707h-307z" />
<glyph unicode="x" d="M10 0l305 543l-280 491h323l152 -313l174 313h289l-277 -495l297 -539h-325l-181 362l-190 -362h-287z" />
<glyph unicode="y" horiz-adv-x="909" d="M18 1034h287l148 -727h4l155 727h279l-399 -1421h-304l111 383z" />
<glyph unicode="z" horiz-adv-x="796" d="M47 0v205l406 645h-392v184h682v-205l-411 -645h418v-184h-703z" />
<glyph unicode="{" horiz-adv-x="561" d="M-61 580v178q86 0 124.5 58.5t38.5 148.5v315q0 137 54.5 201.5t183.5 64.5h152v-162q-162 0 -162 -225v-229q0 -117 -35 -176.5t-133 -81.5v-4q98 -14 133 -87t35 -190v-254q0 -219 162 -219v-162h-134q-150 0 -203 71t-53 228v320q0 205 -163 205z" />
<glyph unicode="|" horiz-adv-x="512" d="M141 -508v2044h228v-2044h-228z" />
<glyph unicode="}" horiz-adv-x="561" d="M80 -82q162 0 162 219v254q0 117 34.5 189.5t133.5 87.5v4q-98 23 -133 82t-35 176v229q0 225 -162 225v162h151q129 0 183.5 -64.5t54.5 -201.5v-315q0 -90 39 -148.5t129 -58.5v-178q-168 0 -168 -205v-320q0 -158 -53.5 -228.5t-202.5 -70.5h-133v162z" />
<glyph unicode="~" d="M51 459q57 115 122 184.5t153 69.5q72 0 209 -67.5t174 -67.5q23 0 41 8t34.5 28.5t25.5 34t24.5 43t21.5 37.5l117 -149q-80 -141 -127 -183q-61 -57 -137 -57q-70 0 -213.5 67.5t-167.5 67.5q-20 0 -39 -8t-31 -18.5t-27.5 -33t-21.5 -33.5t-20.5 -40t-18.5 -35z" />
<glyph unicode="&#xad;" horiz-adv-x="681" d="M90 449v208h502v-208h-502z" />
<glyph unicode="&#x2000;" horiz-adv-x="803" />
<glyph unicode="&#x2001;" horiz-adv-x="1606" />
<glyph unicode="&#x2002;" horiz-adv-x="803" />
<glyph unicode="&#x2003;" horiz-adv-x="1606" />
<glyph unicode="&#x2004;" horiz-adv-x="535" />
<glyph unicode="&#x2005;" horiz-adv-x="401" />
<glyph unicode="&#x2006;" horiz-adv-x="267" />
<glyph unicode="&#x2007;" horiz-adv-x="267" />
<glyph unicode="&#x2008;" horiz-adv-x="200" />
<glyph unicode="&#x2009;" horiz-adv-x="321" />
<glyph unicode="&#x200a;" horiz-adv-x="89" />
<glyph unicode="&#x2010;" horiz-adv-x="681" d="M90 449v208h502v-208h-502z" />
<glyph unicode="&#x2011;" horiz-adv-x="681" d="M90 449v208h502v-208h-502z" />
<glyph unicode="&#x2012;" horiz-adv-x="681" d="M90 449v208h502v-208h-502z" />
<glyph unicode="&#x2013;" horiz-adv-x="1203" d="M90 449v208h1024v-208h-1024z" />
<glyph unicode="&#x2014;" horiz-adv-x="2227" d="M90 449v208h2048v-208h-2048z" />
<glyph unicode="&#x202f;" horiz-adv-x="321" />
<glyph unicode="&#x205f;" horiz-adv-x="401" />
<glyph unicode="&#x25fc;" horiz-adv-x="1034" d="M0 0v1034h1034v-1034h-1034z" />
</font>
</defs>
</svg>
