<?xml version="1.0" standalone="no"?>
<!DOCTYPE svg PUBLIC "-//W3C//DTD SVG 1.1//EN" "http://www.w3.org/Graphics/SVG/1.1/DTD/svg11.dtd" >
<svg xmlns="http://www.w3.org/2000/svg" xmlns:xlink="http://www.w3.org/1999/xlink" version="1.1">
<metadata></metadata>
<defs>
<font id="esofontregular" horiz-adv-x="1024" >
<font-face units-per-em="2048" ascent="1638" descent="-410" />
<missing-glyph horiz-adv-x="454" />
<glyph horiz-adv-x="0" />
<glyph unicode="&#xd;" horiz-adv-x="681" />
<glyph unicode=" "  horiz-adv-x="454" />
<glyph unicode="&#x09;" horiz-adv-x="454" />
<glyph unicode="&#xa0;" horiz-adv-x="454" />
<glyph unicode="!" horiz-adv-x="681" d="M229 1479h224l-41 -1137h-146zM246 0v213h192v-213h-192z" />
<glyph unicode="&#x22;" horiz-adv-x="512" d="M72 1055v424h123v-424h-123zM317 1055v424h123v-424h-123z" />
<glyph unicode="#" horiz-adv-x="909" d="M-2 479l31 115h202l72 233h-207l35 115h205l149 479h105l-150 -479h168l146 479h106l-147 -479h209l-35 -115h-209l-72 -233h211l-35 -115h-211l-147 -479h-105l148 479h-164l-151 -479h-105l150 479h-199zM338 594h164l71 233h-165z" />
<glyph unicode="$" horiz-adv-x="909" d="M8 396.5q0 23.5 2 35.5h193q0 -123 50 -207t157 -92v516q-86 43 -134.5 71t-111 79t-91 114.5t-28.5 145.5q0 168 104.5 276.5t260.5 108.5v121h88v-121q201 0 301 -107.5t100 -310.5h-207q2 119 -42 183.5t-152 70.5v-473q186 -90 247 -135q156 -119 156 -310 q0 -195 -123.5 -292t-279.5 -97v-120h-88v120q-88 0 -158 25t-112 60.5t-70.5 85t-41 93.5t-16.5 90t-4 69.5zM238 1079q0 -137 172 -227v428q-78 -10 -125 -64.5t-47 -136.5zM498 133q94 10 152.5 69.5t58.5 153.5q0 82 -54.5 137.5t-156.5 110.5v-471z" />
<glyph unicode="%" horiz-adv-x="1593" d="M143 1114q0 70 3.5 117t17.5 104.5t41.5 92t78 58t122 23.5t122 -23.5t78 -58t42 -92t17.5 -104.5t3 -117q0 -72 -3 -118t-17.5 -102t-42 -89t-78 -55.5t-122 -22.5t-122 22.5t-78 55.5t-41.5 89t-17.5 102t-3.5 118zM287 1118q0 -72 1 -102.5t6 -73.5t18.5 -59.5 t36 -28.5t57.5 -12q82 0 100 57t18 219q0 72 -1 102.5t-6 73.5t-18.5 59.5t-35.5 29t-57 12.5q-82 0 -100.5 -57.5t-18.5 -219.5zM379 -70l698 1622h133l-702 -1622h-129zM924 356q0 70 3 117t17 104.5t42 92.5t78 58.5t121.5 23.5t122 -23.5t78 -58.5t42 -92.5t17.5 -104.5 t3 -117q0 -72 -3 -116.5t-17.5 -101t-42 -88.5t-78 -54.5t-122 -22.5t-121.5 22.5t-78 54.5t-42 88.5t-17 101.5t-3 116zM1067 360q0 -72 1 -102.5t6 -73.5t18.5 -59t36 -28.5t57.5 -12.5q82 0 100.5 57.5t18.5 218.5q0 72 -1 103t-6.5 74t-18.5 59t-35.5 28.5t-57.5 12.5 q-82 0 -100.5 -57.5t-18.5 -219.5z" />
<glyph unicode="&#x26;" horiz-adv-x="1366" d="M111 393q0 88 21.5 154.5t74.5 121t98 87t133 88.5q-195 223 -194.5 372.5t105 221t259.5 71.5q152 0 249 -74.5t97 -224.5q0 -184 -247 -393l288 -366q29 96 29 419h168q0 -399 -90 -553l237 -317h-213l-118 152q-82 -98 -178.5 -138.5t-233.5 -40.5q-213 0 -349 107.5 t-136 312.5zM303 397q0 -119 85 -194.5t218 -75.5q199 0 301 147l-364 461q-61 -43 -94 -68.5t-72 -67.5t-56.5 -91t-17.5 -111zM436 1200q0 -45 25.5 -90t75 -101.5t61.5 -74.5q164 145 164 266q0 78 -43 122t-119 44q-72 0 -118 -46t-46 -120z" />
<glyph unicode="'" horiz-adv-x="512" d="M195 1055v424h122v-424h-122z" />
<glyph unicode="(" horiz-adv-x="569" d="M102 643q0 90 10.5 179t38 197.5t43 165t59.5 192.5t54 171h125q-137 -541 -137 -913q0 -334 129 -873h-119q-8 27 -53 164t-59.5 189.5t-42 160t-38 193.5t-10.5 174z" />
<glyph unicode=")" horiz-adv-x="569" d="M137 1548h125q10 -35 54 -171t59.5 -192.5t43 -165t38 -197.5t10.5 -179q0 -88 -10.5 -174t-38 -193.5t-42 -160t-59.5 -189.5t-53 -164h-119q129 539 129 873q0 373 -137 913z" />
<glyph unicode="*" horiz-adv-x="909" d="M66 1069v135l319 -24l-184 260l121 69l133 -290l133 290l121 -69l-185 -260l320 24v-135l-320 31l187 -266l-119 -66l-137 295l-138 -295l-118 66l186 266z" />
<glyph unicode="+" d="M88 455v127h361v452h126v-452h361v-127h-361v-455h-126v455h-361z" />
<glyph unicode="," horiz-adv-x="454" d="M70 -256l106 469h211l-186 -469h-131z" />
<glyph unicode="-" horiz-adv-x="681" d="M115 479v158h450v-158h-450z" />
<glyph unicode="." horiz-adv-x="454" d="M131 0v213h193v-213h-193z" />
<glyph unicode="/" horiz-adv-x="569" d="M-45 -193l477 1672h137l-481 -1672h-133z" />
<glyph unicode="0" horiz-adv-x="909" d="M72 581v124q0 334 28 456q57 240 267 277q41 6 88 6q63 0 114.5 -13.5t88 -33t66.5 -58.5t48.5 -70.5t31.5 -92t19 -99.5t10.5 -113.5t4.5 -116.5v-124v-18v-124t-4.5 -117t-10.5 -116t-18 -100.5t-31.5 -93t-48.5 -72.5t-66.5 -60.5t-89 -34t-115 -14.5t-114.5 14.5 t-89 34t-66.5 60.5t-48 72.5t-32 93t-18.5 100.5t-10 116t-4 117zM260 536q0 -30 2 -85.5t7 -86t14.5 -74.5t24 -67.5t33.5 -48t48 -36t66 -11.5t65.5 12.5t48 34t34.5 51t23.5 65.5t13.5 76t6 83t3 88t0 88v43v138t-3 118.5t-8 107.5t-14.5 87t-23.5 74t-33.5 49.5 t-48.5 34.5t-63.5 9t-63.5 -9t-48 -34.5t-33.5 -49.5t-24 -74t-14.5 -87t-8 -107.5t-3 -118.5v-138v-43v-89z" />
<glyph unicode="1" horiz-adv-x="909" d="M190 1071v180q70 31 240 170h162v-1421h-189v1214z" />
<glyph unicode="2" horiz-adv-x="909" d="M88 0v164q78 111 181.5 251t145.5 198.5t96 139.5t71.5 126t31 101t13.5 118q0 88 -44 138t-132 50q-170 0 -166 -231h-193q-12 180 77 284.5t267 104.5q193 0 286 -91t93 -282q0 -94 -16.5 -165.5t-67.5 -156.5t-95 -143.5t-155.5 -197t-191.5 -244.5h563v-164h-764z " />
<glyph unicode="3" horiz-adv-x="909" d="M51 375v16h189q2 -127 39.5 -195.5t154.5 -68.5q217 0 217 256q0 166 -66.5 222.5t-238.5 56.5v165q133 -12 212 46.5t79 189.5q0 102 -48 162.5t-149 60.5q-182 0 -178 -231h-188q-10 186 81 287.5t285 101.5q184 0 284.5 -93.5t100.5 -275.5q0 -76 -23.5 -135t-50 -91 t-75.5 -56.5t-68.5 -30.5t-62.5 -17v-4q162 -23 228.5 -109.5t66.5 -252.5q0 -406 -422 -406q-375 0 -367 402z" />
<glyph unicode="4" horiz-adv-x="909" d="M51 346v164l402 911h249v-911h168v-164h-168v-346h-176v346h-475zM215 510h311v739h-4z" />
<glyph unicode="5" horiz-adv-x="909" d="M100 322h189q0 -92 40 -154t128 -62q63 0 104 28t58.5 79t22.5 96t5 111q0 76 -2 120t-11 98t-28.5 82t-54.5 48t-86 20q-74 0 -118 -45t-56 -120h-170v798h663v-164h-475v-413l4 -4q23 45 87.5 75.5t138.5 30.5q152 0 224.5 -116.5t72.5 -362.5q0 -82 -5.5 -140.5 t-28 -130t-62.5 -116.5t-113.5 -76t-175.5 -31q-203 0 -277 91.5t-74 257.5z" />
<glyph unicode="6" horiz-adv-x="909" d="M74 581v124q0 334 28 456q57 240 267 277q41 6 88 6q162 0 260 -93.5t92 -252.5h-188q0 82 -44.5 145.5t-121.5 63.5q-113 0 -153 -112t-40 -402h4q76 133 232 133q338 0 338 -477q0 -209 -92 -342.5t-287 -133.5q-63 0 -114.5 14.5t-89.5 34t-66.5 60.5t-48 72.5t-32 93 t-18.5 100.5t-10 116t-4 117zM266 461q0 -334 201 -334q104 0 142 94t38 260q0 287 -192 287q-189 0 -189 -307z" />
<glyph unicode="7" horiz-adv-x="909" d="M61 1257v164h736v-164l-379 -1257h-213l397 1257h-541z" />
<glyph unicode="8" horiz-adv-x="909" d="M76 383q0 342 262 369v2q-121 25 -184.5 116t-63.5 217q0 166 98.5 261.5t266.5 95.5t266 -95.5t98 -261.5q0 -127 -63.5 -217.5t-184.5 -115.5v-2q262 -27 263 -369q0 -195 -97.5 -302.5t-282 -107.5t-281.5 107.5t-97 302.5zM264 381q0 -104 46 -179t144.5 -75 t144.5 74.5t46 179.5q0 45 -3 80t-14.5 77t-30.5 69.5t-55 46t-87.5 18.5t-87 -18.5t-55 -46t-31 -69.5t-14.5 -77t-3 -80zM279 1094q0 -100 40.5 -179t135 -79t135.5 78.5t41 179.5q0 88 -45 150.5t-131 62.5t-131 -62.5t-45 -150.5z" />
<glyph unicode="9" horiz-adv-x="909" d="M74 1008q0 223 109.5 329.5t269.5 106.5q63 0 114 -13.5t88 -33t67 -58.5t48 -70.5t31.5 -92t19.5 -99.5t10.5 -113.5t4.5 -116.5v-124v-18v-124t-4.5 -117t-10.5 -116t-18 -100.5t-31.5 -93t-48.5 -72.5t-67 -60.5t-89 -34t-114 -14.5q-162 0 -257.5 99.5t-93.5 267.5 h189q0 -90 39 -151.5t123 -61.5q53 0 90 25.5t57.5 65.5t30.5 119t13 153.5t3 201.5h-4q-61 -133 -244 -133q-51 0 -100 16.5t-103.5 60.5t-88 139t-33.5 233zM262 1012q0 -295 190.5 -295t190.5 295t-190.5 295t-190.5 -295z" />
<glyph unicode=":" horiz-adv-x="454" d="M131 0v213h193v-213h-193zM131 821v213h193v-213h-193z" />
<glyph unicode=";" horiz-adv-x="454" d="M70 -256l106 469h211l-186 -469h-131zM131 821v213h193v-213h-193z" />
<glyph unicode="&#x3c;" d="M86 453v131l854 471v-150l-694 -387l694 -395v-146z" />
<glyph unicode="=" d="M88 256v127h848v-127h-848zM88 659v127h848v-127h-848z" />
<glyph unicode="&#x3e;" d="M84 -23v146l694 395l-694 387v150l854 -471v-131z" />
<glyph unicode="?" horiz-adv-x="909" d="M115 1087q-16 422 356 422q156 0 245 -92t89 -250q0 -115 -43 -215t-93.5 -155.5t-93.5 -119t-43 -112.5v-190h-167v233q0 59 38.5 127t85 122t85 139t38.5 175q0 78 -38.5 139.5t-114.5 61.5q-158 0 -152 -285h-192zM352 0v213h193v-213h-193z" />
<glyph unicode="@" horiz-adv-x="1613" d="M49 741q0 319 226.5 543.5t545.5 224.5q195 0 342.5 -59t221 -137t117.5 -177.5t53.5 -156.5t9.5 -98q0 -164 -53.5 -288t-133.5 -187.5t-156.5 -94t-142.5 -30.5q-59 0 -110 27.5t-68 80.5q-100 -104 -246 -104q-129 0 -207.5 90t-78.5 219q0 141 62.5 283.5t183 243 t266.5 100.5q76 0 139 -36t94 -102l29 97h141l-211 -625q-27 -74 -26 -106q0 -53 61 -54q113 0 227.5 132t114.5 354q0 47 -10 101t-49 132t-102.5 136.5t-185.5 101.5t-282 43q-272 0 -464.5 -191.5t-192.5 -464t191.5 -464t465.5 -191.5q188 0 339 69.5t243 202.5h123 q-98 -178 -286.5 -280.5t-418.5 -102.5q-322 0 -547 223.5t-225 544.5zM526 604q0 -80 43 -138t117 -58q84 0 153.5 70.5t108.5 167.5t59.5 179t20.5 123q0 61 -41 105.5t-104 44.5q-150 0 -253.5 -166t-103.5 -328z" />
<glyph unicode="A" horiz-adv-x="1251" d="M31 0l469 1479h239l482 -1479h-211l-107 352h-571l-111 -352h-190zM379 516h473l-238 789h-4z" />
<glyph unicode="B" horiz-adv-x="1251" d="M184 0v1479h482q139 0 209.5 -39t119.5 -113q59 -92 60 -197q0 -145 -58.5 -232t-195.5 -118v-10q303 -35 303 -354q-1 -416 -445 -416h-475zM373 164h266q137 0 204.5 77.5t67.5 174.5q0 86 -24.5 142t-73.5 85t-104.5 39t-135.5 10h-200v-528zM373 856h274 q109 0 164 62.5t55 173.5q0 98 -57 160.5t-170 62.5h-266v-459z" />
<glyph unicode="C" horiz-adv-x="1138" d="M150 555v418q0 297 120.5 416.5t354.5 119.5q215 1 308 -109q81 -95 81 -274q0 -27 -2 -55h-195v24q0 138 -43 191q-27 31 -77 47.5t-89 16.5q-70 0 -124 -26t-74.5 -49.5t-24.5 -39.5q0 -2 -5 -11.5t-9 -19.5t-9.5 -33.5t-9.5 -53.5t-7 -80t-3 -109v-396 q0 -131 19.5 -216t59.5 -123.5t82 -52t103 -13.5q31 0 61.5 9t73.5 36t71 95.5t28 168.5h194v-19q0 -99 -20 -175q-22 -84 -64.5 -132.5t-83.5 -78t-98 -40.5t-85 -14.5t-67 -3.5q-51 0 -84.5 2t-87 14.5t-90.5 34t-79 64.5t-66.5 102.5t-41.5 152.5t-17 212z" />
<glyph unicode="D" horiz-adv-x="1251" d="M170 0v1479h455q293 0 397 -226q65 -135 65 -457v-10q0 -453 -90 -596q-121 -190 -487 -190h-340zM358 164h179q201 0 279.5 94t78.5 348v299q0 221 -69.5 315.5t-219.5 94.5h-248v-1151z" />
<glyph unicode="E" d="M166 0v1479h762v-164h-574v-475h533v-164h-533v-512h586v-164h-774z" />
<glyph unicode="F" horiz-adv-x="909" d="M152 0v1479h733v-164h-545v-475h516v-164h-516v-676h-188z" />
<glyph unicode="G" horiz-adv-x="1251" d="M147 541v485q0 227 118 355t347 128q244 0 356 -99q104 -93 104 -297q0 -15 -1 -30h-197q0 135 -61 202t-201 67q-27 0 -52 -3t-68 -20.5t-74 -49.5t-54.5 -95.5t-23.5 -151.5v-500q0 -231 65.5 -318t206.5 -87q176 0 265 66v442h-273v164h461v-719q-197 -106 -453 -107 q-240 0 -352.5 133.5t-112.5 434.5z" />
<glyph unicode="H" horiz-adv-x="1251" d="M178 0v1479h189v-639h518v639h188v-1479h-188v676h-518v-676h-189z" />
<glyph unicode="I" horiz-adv-x="569" d="M190 0v1479h189v-1479h-189z" />
<glyph unicode="J" d="M61 459h197q0 -8 1 -51t2 -57.5t5 -53.5t11.5 -55.5t20.5 -44t31.5 -39t46 -21.5t62.5 -10q57 0 98.5 20.5t64 50t33.5 81t14 93.5t3 107v1000h189v-1112q0 -41 -3 -74t-24.5 -97.5t-60.5 -108.5t-122 -79t-198 -35q-82 0 -173 33t-138 109q-60 98 -60 344z" />
<glyph unicode="K" horiz-adv-x="1138" d="M166 0v1479h188v-650h6l517 650h213l-537 -668l567 -811h-241l-519 772h-6v-772h-188z" />
<glyph unicode="L" horiz-adv-x="909" d="M166 0v1479h188v-1315h543v-164h-731z" />
<glyph unicode="M" horiz-adv-x="1705" d="M168 0v1479h305l373 -1241h4l377 1241h311v-1479h-188v1315h-4l-414 -1315h-178l-406 1315h-4v-1315h-176z" />
<glyph unicode="N" horiz-adv-x="1366" d="M176 0v1479h266l576 -1266h4v1266h168v-1479h-258l-584 1282h-4v-1282h-168z" />
<glyph unicode="O" horiz-adv-x="1251" d="M160 541v485q0 227 117.5 355t347 128t347.5 -128t118 -355v-485q0 -301 -113 -434.5t-352.5 -133.5t-352 133.5t-112.5 434.5zM352 532q0 -231 65.5 -318t207 -87t207 87t65.5 318v500q0 88 -23.5 151.5t-54.5 95.5t-74 49.5t-68.5 20.5t-52 3t-52 -3t-68.5 -20.5 t-74 -49.5t-54.5 -95.5t-23.5 -151.5v-500z" />
<glyph unicode="P" horiz-adv-x="1138" d="M190 0v1479h439q411 0 411 -420q0 -121 -42 -206t-109.5 -126t-132 -58.5t-129.5 -17.5h-248v-651h-189zM379 815h207q39 0 75.5 8t83 31t75 77t28.5 136q0 78 -25.5 132t-64.5 76.5t-67.5 31t-51.5 8.5h-260v-500z" />
<glyph unicode="Q" horiz-adv-x="1251" d="M147 541v485q0 227 118 355t347.5 128t347 -128t117.5 -355v-485q0 -102 -35.5 -241.5t-93.5 -164.5l4 -4q106 33 129 33h148v-164h-615q-55 0 -90 2t-89 13.5t-90 31t-77 59t-64.5 96t-40 142.5t-16.5 197zM340 532q0 -197 58.5 -288.5t216 -91.5t214 91t56.5 289v500 q0 88 -23.5 151.5t-54.5 95.5t-74 49.5t-68.5 20.5t-52 3t-52 -3t-68.5 -20.5t-74 -49.5t-54.5 -95.5t-23.5 -151.5v-500z" />
<glyph unicode="R" horiz-adv-x="1138" d="M162 0v1479h510q182 0 268 -106.5t86 -262.5q0 -133 -70.5 -224t-199.5 -114v-4q133 -20 183 -93t58 -288q2 -68 17.5 -197t34.5 -190h-197q-25 47 -34 116.5t-14 194.5t-9 181q-15 188 -224 188h-221v-680h-188zM350 844h283q96 0 148.5 70.5t52.5 175.5 q0 92 -49.5 158.5t-149.5 66.5h-285v-471z" />
<glyph unicode="S" horiz-adv-x="1138" d="M125 370q1 20 1 37t-1 33h186v-43q0 -139 72 -201.5t176 -62.5q264 0 264 240q0 90 -68.5 157.5t-165.5 116.5t-194.5 102.5t-166 144.5t-68.5 214q0 190 120.5 295.5t313.5 105.5q411 0 411 -398q0 -17 -1 -34h-197v10q0 124 -49 190q-51 69 -178 69q-96 0 -162 -53.5 t-66 -164.5q0 -88 68.5 -155.5t166 -115.5t195 -102.5t166 -149.5t68.5 -224q0 -217 -127 -311.5t-332 -96.5q-90 0 -161.5 18.5t-115.5 49.5t-77 71t-46.5 85t-23.5 89q-8 37 -8 70v14z" />
<glyph unicode="T" d="M29 1315v164h966v-164h-389v-1315h-188v1315h-389z" />
<glyph unicode="U" horiz-adv-x="1251" d="M160 541v938h188v-947q0 -231 66.5 -318t210 -87t210 87t66.5 318v947h189v-938q0 -301 -113 -434.5t-352.5 -133.5t-352 133.5t-112.5 434.5z" />
<glyph unicode="V" horiz-adv-x="1138" d="M27 1479h204l338 -1301h4l347 1301h192l-432 -1479h-225z" />
<glyph unicode="W" horiz-adv-x="1820" d="M12 1479h201l279 -1282h4l297 1282h243l269 -1282h4l301 1282h196l-391 -1479h-229l-281 1282h-4l-299 -1282h-229z" />
<glyph unicode="X" horiz-adv-x="1138" d="M12 0l426 766l-403 713h217l303 -574l307 574h207l-397 -713l442 -766h-227l-344 633l-326 -633h-205z" />
<glyph unicode="Y" d="M16 1479h211l289 -715l299 715h191l-404 -916v-563h-188v563z" />
<glyph unicode="Z" d="M49 0v213l717 1098v4h-692v164h882v-189l-733 -1126h750v-164h-924z" />
<glyph unicode="[" horiz-adv-x="569" d="M143 -238v1786h340v-114h-172v-1557h178v-115h-346z" />
<glyph unicode="\" horiz-adv-x="569" d="M0 1479h135l434 -1506h-137z" />
<glyph unicode="]" horiz-adv-x="569" d="M80 -123h178v1557h-172v114h340v-1786h-346v115z" />
<glyph unicode="^" d="M135 567l309 854h123l320 -854h-154l-229 652h-4l-226 -652h-139z" />
<glyph unicode="_" d="M0 -150h1024v-102h-1024v102z" />
<glyph unicode="`" horiz-adv-x="569" d="M41 1479h223l182 -289h-137z" />
<glyph unicode="a" d="M133 319q0 90 36 154t86 96.5t130 50.5q81 17 143 20q38 2 83 2q31 0 65 -1q0 41 1 82v8q-1 37 -9 70q-10 37 -26.5 65.5t-52.5 45t-87 16.5q-84 0 -127 -52q-36 -43 -36 -108q0 -12 1 -25h-182q6 168 93 240t257 72q186 0 261 -83t75 -229v-497q0 -113 20 -246h-184v150 h-4q-39 -88 -100.5 -127t-159.5 -39q-156 0 -219.5 87t-63.5 248zM301 307q0 -82 41 -136t121 -54q215 0 215 337q0 29 -2 60q-182 -2 -242 -20q-133 -41 -133 -187z" />
<glyph unicode="b" d="M162 0v1479h168v-549h6q88 125 227 125q70 0 124 -18.5t90 -45t60.5 -75t38 -89.5t20.5 -105.5t8 -108.5t1 -113q0 -131 -19.5 -227.5t-49 -150.5t-76.5 -87t-90 -42t-99 -9q-154 0 -237 139h-4v-123h-168zM330 559q0 -209 16 -280q39 -162 172 -162q43 0 78 14 t56.5 33.5t37 54.5t23.5 62.5t11 73.5t4 72t1 71q0 227 -39 323.5t-166 96.5q-45 0 -78.5 -16.5t-54 -47.5t-34 -63.5t-18.5 -78.5t-7 -78t-2 -75z" />
<glyph unicode="c" d="M152 502q0 104 6 175t29.5 148.5t64.5 123.5t114.5 76t178.5 30q157 -1 241 -91q76 -83 77 -233q0 -14 -1 -29h-174v10q0 108 -41 156q-43 50 -102 50q-106 0 -161.5 -73t-55.5 -272q0 -258 45 -357t172 -99q49 0 101 53q48 49 48 157v17h176v-14q0 -76 -20 -136 q-22 -66 -58 -103.5t-82 -63t-86 -34.5t-79 -9q-74 0 -126 10t-106.5 41t-87 86t-53 151.5t-20.5 229.5z" />
<glyph unicode="d" d="M119 500q0 70 1 113.5t8 108t20.5 105.5t38 89.5t60.5 75t90 45t124 18.5q139 0 227 -125h6v549h168v-1479h-168v123h-4q-84 -139 -237 -139q-55 0 -98.5 9t-90.5 42t-76.5 87t-49 150.5t-19.5 227.5zM295 498q0 -45 1 -71t4 -72t11 -73.5t23.5 -62.5t37 -54.5 t56.5 -33.5t78 -14q45 0 78.5 16.5t54 53t32 70.5t16.5 96.5t6 99t1 106.5q0 43 -2 75t-7 78t-18.5 78.5t-34 63.5t-54 47.5t-78.5 16.5q-127 0 -166 -96.5t-39 -323.5z" />
<glyph unicode="e" d="M131 502q0 104 6 175t29.5 148.5t64.5 123.5t115 76t178 30q213 0 291 -118t78 -386v-88h-582q0 -203 50.5 -274.5t158.5 -71.5q82 0 129 56t51 140h185q-2 -166 -97.5 -247.5t-263.5 -81.5q-74 0 -126 10t-106 41t-87 86t-53.5 151.5t-20.5 229.5zM311 590h404 q0 209 -50.5 273.5t-156.5 64.5q-92 0 -143.5 -70.5t-53.5 -267.5z" />
<glyph unicode="f" horiz-adv-x="569" d="M18 907v127h160v201q0 250 297 250q43 0 80 -6v-121q-20 1 -38 1q-90 0 -127 -33q-44 -40 -44 -116v-176h209v-127h-209v-907h-168v907h-160z" />
<glyph unicode="g" d="M125 549q0 135 26.5 234.5t62.5 149.5t85 79.5t82 36t68 6.5q172 0 241 -148h4v127h168v-1134q0 -164 -97 -225.5t-284 -61.5q-139 0 -231 71q-83 63 -83 179q0 13 1 26h188q2 -72 45 -110.5t113 -38.5q86 0 133 48t47 130v211h-6q-31 -59 -94.5 -94t-132.5 -35 q-102 0 -171 41t-103.5 120t-48 171t-13.5 217zM301 549q0 -236 49 -323t152 -87q49 0 85 16.5t56.5 53.5t32.5 65.5t16 87t5 81t1 79.5q0 199 -28 275q-45 118 -170 118h-2q-55 0 -94 -26.5t-58.5 -61t-30 -91t-12.5 -94.5t-2 -93z" />
<glyph unicode="h" d="M145 0v1479h168v-578h9q49 88 112.5 121t167.5 33q137 0 206 -76t69 -246v-733h-168v700q0 217 -185 218q-117 0 -164 -82t-47 -228v-608h-168z" />
<glyph unicode="i" horiz-adv-x="454" d="M133 1298v181h189v-181h-189zM143 0v1034h168v-1034h-168z" />
<glyph unicode="j" horiz-adv-x="454" d="M18 -244q63 0 94 19t31 78v1181h168v-1173q0 -133 -59 -190.5t-234 -57.5v143zM133 1298v181h189v-181h-189z" />
<glyph unicode="k" horiz-adv-x="909" d="M147 0v1479h168v-891h4l316 446h205l-344 -444l405 -590h-213l-369 580h-4v-580h-168z" />
<glyph unicode="l" horiz-adv-x="454" d="M143 0v1479h168v-1479h-168z" />
<glyph unicode="m" horiz-adv-x="1478" d="M129 1034h178v-129h4q66 150 258 150q78 0 146.5 -34t95.5 -99q70 133 246 133q283 0 282 -269v-786h-168v717q0 201 -163 201q-51 0 -73 -6.5t-54 -32.5q-57 -47 -58 -183v-696h-168v717q0 201 -163 201q-39 0 -83 -20.5t-63 -49.5q-39 -66 -39 -152v-696h-168v819 q0 96 -10 215z" />
<glyph unicode="n" d="M137 1034h178v-133h9q49 86 111.5 120t164.5 34q156 0 216.5 -85t60.5 -253v-717h-168v717q0 201 -183 201q-211 0 -211 -306v-612h-168v819q0 96 -10 215z" />
<glyph unicode="o" d="M119 502q0 104 6 175t29.5 148.5t64.5 123.5t115 76t178 30t178 -30t115 -76t64.5 -123.5t29.5 -148.5t6 -175q0 -133 -20.5 -229.5t-53 -151.5t-87 -86t-106.5 -41t-126 -10t-126 10t-106.5 41t-87 86t-53 151.5t-20.5 229.5zM295 573q0 -258 45 -357t172 -99t172 99 t45 357q0 199 -55.5 272t-161.5 73t-161.5 -73t-55.5 -272z" />
<glyph unicode="p" d="M162 -387v1421h168v-123h4q86 143 237 144q72 0 124.5 -18.5t103.5 -70t78.5 -160t27.5 -271.5q0 -70 -1 -113t-8 -107.5t-20.5 -105.5t-38 -88t-60.5 -74t-90 -45t-124 -18q-143 0 -227 120h-6v-491h-168zM329 572.5q-1 -33.5 1 -62.5v-37q0 -68 5 -116t21.5 -110.5 t59 -96t108.5 -33.5q127 0 166 95t39 323q0 53 -1 83.5t-6 83t-19.5 84t-36 65.5t-59.5 50.5t-89 16.5q-35 0 -63.5 -11.5t-47 -30t-34 -45t-22.5 -57.5t-13 -64.5t-7 -68.5t-2 -68.5z" />
<glyph unicode="q" d="M119 535q0 164 27.5 272t78.5 159.5t103.5 70t124.5 18.5q152 0 237 -144h4v123h168v-1421h-168v491h-6q-83 -120 -225 -120h-2q-70 0 -124 18t-90 45t-60.5 74t-38 88t-20.5 105.5t-8 107.5t-1 113zM295 535q0 -227 39 -322.5t166 -95.5q66 0 108.5 33.5t59 96t21.5 111 t5 115.5q0 207 -16 279q-37 161 -170 161h-2q-51 0 -89 -15t-59.5 -49t-36 -64.5t-19.5 -84t-6 -83t-1 -82.5z" />
<glyph unicode="r" horiz-adv-x="681" d="M154 0v1034h168v-155h4q49 111 116.5 143.5t202.5 32.5v-174q-6 0 -22.5 2t-22.5 4q-29 4 -45 4q-233 0 -233 -281v-610h-168z" />
<glyph unicode="s" horiz-adv-x="909" d="M96 315h191q0 -198 170 -198h2q80 0 129 41t49 116q0 49 -53.5 91.5t-129 76t-151.5 73.5t-129 105.5t-53 151.5q0 47 15.5 91t52 90t111.5 74t177 28q150 0 244 -74q85 -67 85 -192q0 -13 -1 -27h-187v8q0 158 -161 158q-70 0 -115 -37t-45 -103q0 -49 53 -89t129 -73.5 t152 -72.5t129 -104.5t53 -153.5q0 -162 -97.5 -236.5t-262.5 -74.5q-173 0 -267 80q-90 76 -90 237v14z" />
<glyph unicode="t" horiz-adv-x="569" d="M0 907v127h166v199l168 76v-275h225v-127h-225v-633q0 -35 3 -53t15.5 -44.5t46 -39t88.5 -12.5q2 0 76 8v-129l-166 -12q-231 0 -231 180v735h-166z" />
<glyph unicode="u" d="M154 246v788h168v-717q0 -96 45 -152t131 -56q78 0 140 60t62 179v686h168v-819q0 -96 11 -215h-179v125h-6q-84 -141 -262 -141q-279 0 -278 262z" />
<glyph unicode="v" horiz-adv-x="909" d="M29 1034h188l232 -876h4l249 876h177l-324 -1034h-219z" />
<glyph unicode="w" horiz-adv-x="1478" d="M18 1034h187l186 -891h4l230 891h237l211 -891h4l205 891h178l-276 -1034h-226l-221 881h-4l-231 -881h-226z" />
<glyph unicode="x" horiz-adv-x="909" d="M12 0l322 541l-295 493h215l197 -370l208 370h203l-309 -493l342 -541h-221l-240 424l-223 -424h-199z" />
<glyph unicode="y" horiz-adv-x="909" d="M16 1034h195l248 -841h4l248 841h182l-469 -1421h-174l117 387z" />
<glyph unicode="z" horiz-adv-x="796" d="M72 0v158l450 735v4h-428v137h617v-153l-457 -744h471v-137h-653z" />
<glyph unicode="{" horiz-adv-x="561" d="M14 629v114q96 20 140.5 53t44.5 105v381q0 43 8 78t17 61.5t30.5 47t36 34t44.5 22.5t44 13t47 7t43 3h42h34v-114q-104 0 -141 -45.5t-37 -139.5v-313q0 -106 -44 -165.5t-165 -82.5v-4q125 -27 167 -94.5t42 -188.5v-352q0 -88 38.5 -133t139.5 -45v-115 q-201 -6 -273.5 60.5t-72.5 236.5v404q0 39 -7.5 64.5t-29 43t-34.5 24.5t-54 20.5t-60 19.5z" />
<glyph unicode="|" horiz-adv-x="512" d="M193 -508v2044h126v-2044h-126z" />
<glyph unicode="}" horiz-adv-x="561" d="M14 -129q100 0 139.5 45t39.5 133v352q0 121 41.5 188.5t166.5 94.5v4q-121 23 -164.5 82t-43.5 166v313q0 94 -37 139.5t-142 45.5v114h34h42t43 -3t47.5 -7t44 -13t44 -22.5t36 -34t30.5 -47t17 -61.5t8 -78v-381q0 -72 44.5 -104.5t140.5 -53.5v-114 q-18 -6 -59.5 -19.5t-54.5 -20.5t-34.5 -24.5t-29 -43t-7.5 -64.5v-404q0 -170 -72.5 -236.5t-273.5 -60.5v115z" />
<glyph unicode="~" d="M90 438q49 109 104.5 175.5t135.5 66.5q61 0 196 -72q131 -72 174 -71q90 0 166 170l70 -97q-100 -227 -238 -227q-47 0 -227 90q-98 51 -141 51q-41 0 -77 -32.5t-51.5 -63.5t-41.5 -88z" />
<glyph unicode="&#xad;" horiz-adv-x="681" d="M115 479v158h450v-158h-450z" />
<glyph unicode="&#x2000;" horiz-adv-x="782" />
<glyph unicode="&#x2001;" horiz-adv-x="1565" />
<glyph unicode="&#x2002;" horiz-adv-x="782" />
<glyph unicode="&#x2003;" horiz-adv-x="1565" />
<glyph unicode="&#x2004;" horiz-adv-x="521" />
<glyph unicode="&#x2005;" horiz-adv-x="391" />
<glyph unicode="&#x2006;" horiz-adv-x="260" />
<glyph unicode="&#x2007;" horiz-adv-x="260" />
<glyph unicode="&#x2008;" horiz-adv-x="195" />
<glyph unicode="&#x2009;" horiz-adv-x="313" />
<glyph unicode="&#x200a;" horiz-adv-x="86" />
<glyph unicode="&#x2010;" horiz-adv-x="681" d="M115 479v158h450v-158h-450z" />
<glyph unicode="&#x2011;" horiz-adv-x="681" d="M115 479v158h450v-158h-450z" />
<glyph unicode="&#x2012;" horiz-adv-x="681" d="M115 479v158h450v-158h-450z" />
<glyph unicode="&#x2013;" horiz-adv-x="1255" d="M115 479v158h1024v-158h-1024z" />
<glyph unicode="&#x2014;" horiz-adv-x="2279" d="M115 479v158h2048v-158h-2048z" />
<glyph unicode="&#x202f;" horiz-adv-x="313" />
<glyph unicode="&#x205f;" horiz-adv-x="391" />
<glyph unicode="&#x25fc;" horiz-adv-x="1034" d="M0 0v1034h1034v-1034h-1034z" />
</font>
</defs>
</svg>
